查看: 143|回复: 0

[专辑] 苏曼《佳人曲 HQCDⅡ》稀有而低沉,自然独特而且醇厚[WAV+CUE整轨]

[复制链接]

592

主题

16

回帖

133

海水币

超级版主

积分
1536
发表于 2024-5-6 15:20:18 | 显示全部楼层 |阅读模式
本帖最后由 音乐心情 于 2024-6-16 16:55 编辑

cover.jpg
back.jpg
cd.jpg
专辑名称:佳人曲 HQCDⅡ
专辑艺人:苏曼
发行公司:天艺文化传播有限公司
出版公司:齐鲁电子音像出版社
ISBN:978-7-89396-251-6
资源类型:正版CD原抓WAV+CUE

专辑介绍:
  苏曼独特醇厚的声线,如陈醇美酒,久品弥香。如月光下绽放的罂粟花,美丽绝艳,仿佛自天外飘来,让人上瘾而欲罢不能。绝对是梦寐以求的顶级发烧女声!
   苏曼的声音,稀有而低沉,自然独特而且醇厚。久品弥香的嗓音独一无二,仿佛自天外飘来,绝对是梦寐以求的最佳级别发烧女声之一。苏曼以独特醇厚的声音,引领你的耳朵游离天堂之美。娓娓珍贵的柔媚味道,美似天籁的幽美旋律,实为发烧乐迷梦寐以求的极佳女声。漂亮得令人妒忌的声线,富有磁性,韵味十足。高贵而不失舒适,成熟中略带慵懒,如陈醇美酒,久品弥香。就如月光下绽放的罂粟花,美丽绝艳,让人上瘾而欲罢不能。《苏曼:佳人曲》高品位再现“音乐的空气感”!

曲目:
01 尘封之翼
02 旧梦不须记
03 相思河畔
04 暧昧
05 橄榄树
06 美丽心情
07 伤情
08 感恩的心
09 情人
10 忆相思
11 当你孤单你会想起谁
12 佳人曲

下载地址:
苏曼.2024 -《佳人曲HQⅡ》头版限量编号[低速原抓WAV+CUE].zip (访问密码: 6688)

Exact Audio Copy V1.1 from 23. June 2015

EAC 抓取日志文件从4. 四月 2024, 13:45

苏曼 / 佳人曲HQⅡ

使用驱动器  :TEAC    CD-W54E   Adapter: 1  ID: 0

读取模式      : 可靠Secure
使用精确流     : 是
清空音频缓存    : 是
使用 C2 指示器 : 否

读取偏移校正:               : 685
读取 Lead-In 和 Lead-Out : 否
用静音填充抓取中丢失偏移的采样       : 是
去除首尾静音块               : 否
在CRC 计算中使用了空样本       : 是
已用接口                  : Win NT 及 2000 本地 Win32 接口

所用输出模式: : 内部 WAV 函数
样本格式    : 44.100 Hz; 16 Bit; 立体声


已抓取 CD 的 TOC

     音轨 |    起始    |    长度    |  起始扇区  |  结束扇区  
    --------------------------------------------
      1 |  0:00.00 |  2:05.68 |      0 |   9442
      2 |  2:05.68 |  3:41.17 |   9443 |  26034
      3 |  5:47.10 |  3:55.51 |  26035 |  43710
      4 |  9:42.61 |  4:27.68 |  43711 |  63803
      5 | 14:10.54 |  4:54.34 |  63804 |  85887
      6 | 19:05.13 |  5:31.21 |  85888 | 110733
      7 | 24:36.34 |  4:02.68 | 110734 | 128951
      8 | 28:39.27 |  5:10.04 | 128952 | 152205
      9 | 33:49.31 |  5:26.14 | 152206 | 176669
     10 | 39:15.45 |  4:12.27 | 176670 | 195596
     11 | 43:27.72 |  4:52.47 | 195597 | 217543
     12 | 48:20.44 |  2:44.28 | 217544 | 229871


范围状态及错误

已选择范围

     文件名 D:\苏曼 - 佳人曲HQⅡ.wav

     峰值电平 97.7 %
     抓取速度 1.2 X
     范围质量 100.0 %
     复制 CRC D6951501
     复制成功

没有错误发生

状态报告结尾

---- CUETools DB Plugin V2.1.6

[CTDB TOCID: 0djCMP6SKq33HcjtZ4TZ.44gZ2c-] found
Submit result: 0djCMP6SKq33HcjtZ4TZ.44gZ2c- has been confirmed
Track | CTDB Status
  1   | (10/10) Accurately ripped
  2   | (10/10) Accurately ripped
  3   | (10/10) Accurately ripped
  4   | (10/10) Accurately ripped
  5   | (10/10) Accurately ripped
  6   | (10/10) Accurately ripped
  7   | (10/10) Accurately ripped
  8   | (10/10) Accurately ripped
  9   | (10/10) Accurately ripped
10   | (10/10) Accurately ripped
11   | (10/10) Accurately ripped
12   | (10/10) Accurately ripped

您需要登录后才可以回帖 登录 | 立即注册

本版积分规则

海水之声

海水音乐

海水VIP

免责声明

论坛功能

投诉维权

帮助中心

论坛公告

联系我们

微信号:wglkyj

QQ:54528858

联系:54528858@qq.com

版权均为原作者所有,仅为网友提供音乐信息的交流与学习的平台

本站不提供任何音乐本地下载,不为其版权负责,服务器不会保存

资源均网友第三方网盘链接分享,侵犯权益请联系第三方申请删除

网页的内容侵犯您权益,请联系管理员邮箱,我们将在第一时间删除

关注微信公众号

手机版|小黑屋|海水之声-音乐学习辅导论坛 |网站地图

GMT+8, 2024-7-23 01:05 , Processed in 0.391102 second(s), 6 queries , Redis On.