查看: 105|回复: 2

[专辑] 《2号激情[中文版舞曲]》性感的时尚诱惑 激情舞动迪吧夜场的新动力[WAV+CUE]

[复制链接]

533

主题

14

回帖

117

海水币

超级版主

积分
1373
发表于 2024-5-28 21:18:44 | 显示全部楼层 |阅读模式
cover.jpg
专辑名称:2号激情[中文版舞曲]HQ  
专辑艺人:群星
出版发行: 山东文化音像出版社
ISRC:CN-E27-11-089-00/A.J6
资源类型:WAV/CUE
back.jpg
专辑介绍:

身体的激情 让动感带你进入HI-FI空间
魅惑张扬个性的舞曲,疯狂的艺术魅力,性感的时尚诱惑,激情舞动迪吧夜场的新动力…

disk.jpg
专辑曲目:

01.我不是花瓶 04:53
02.你的眼角流着我的泪 07:06
03.别样玫瑰  06:50
04.让爱回头 05:18
05.爱情伤悲 06:22
06.伤了我的眼 04:52
07.绽放的玫瑰 06:59
08.情泪 05:53
09.火辣辣的爱 04:39
10.输了爱 06:08
11.姑娘贵姓 03:58
12.爱上你不是我的罪 06:18

下载链接:
《2号激情[中文版舞曲]HQ 》[WAV+CUE].zip (访问密码: 6688)

533

主题

14

回帖

117

海水币

超级版主

积分
1373
 楼主| 发表于 2024-5-28 21:19:43 | 显示全部楼层
01.png 02.png 03.jpg 04.png
Exact Audio Copy V0.99 prebeta 4 from 23. January 2008

EAC 抓取日志文件从7. 十月 2015, 19:07

章鱼原抓 / 2号激情[中文版舞曲]HQ

使用驱动器  :BENQ    DVDROM DD18SA   Adapter: 1  ID: 1

读取模式 : 保护

读取偏移校正                   : 0
读取 Lead-In 和 Lead-Out       : 否
用静音填充抓取中丢失偏移的采样 : 是
去除首尾静音块                 : 否
在 CRC 计算中使用了空样本      : 否
已用接口                       : Win NT 及 2000 本地 Win32 接口

所用输出格式 : 内部 WAV 函数
样本格式     : 44.100 Hz;16 Bit;立体声


被抓轨 CD 的 TOC

     音轨 |   开始   |   长度   | 起始扇区 | 结尾扇区
    --------------------------------------------------
       1  |  0:00.00 |  4:54.48 |       0  |   22097  
       2  |  4:54.48 |  7:07.57 |   22098  |   54179  
       3  | 12:02.30 |  6:51.43 |   54180  |   85047  
       4  | 18:53.73 |  5:20.18 |   85048  |  109065  
       5  | 24:14.16 |  6:24.20 |  109066  |  137885  
       6  | 30:38.36 |  4:54.35 |  137886  |  159970  
       7  | 35:32.71 |  6:51.11 |  159971  |  190806  
       8  | 42:24.07 |  5:55.17 |  190807  |  217448  
       9  | 48:19.24 |  4:37.03 |  217449  |  238226  
      10  | 52:56.27 |  6:02.13 |  238227  |  265389  
      11  | 58:58.40 |  3:56.00 |  265390  |  283089  
      12  | 62:54.40 |  5:56.36 |  283090  |  309825  


范围状态及错误

已选择范围

     文件名 E:\★音乐收藏\原抓\章鱼原抓《2号激情[中文版舞曲]HQ 》[WAV+CUE]\2号激情[中文版舞曲]HQ.wav

     峰值电平 100.0 %
     范围质量 100.0 %
     复制 CRC EE2D1095
     复制成功

没有错误发生

状态报告结尾

0

主题

23

回帖

5

海水币

注册会员

积分
54
发表于 2024-6-6 18:19:28 | 显示全部楼层
感谢楼主分享
您需要登录后才可以回帖 登录 | 立即注册

本版积分规则

海水之声

海水音乐

海水VIP

免责声明

论坛功能

投诉维权

帮助中心

论坛公告

联系我们

微信号:wglkyj

QQ:54528858

联系:54528858@qq.com

版权均为原作者所有,仅为网友提供音乐信息的交流与学习的平台

本站不提供任何音乐本地下载,不为其版权负责,服务器不会保存

资源均网友第三方网盘链接分享,侵犯权益请联系第三方申请删除

网页的内容侵犯您权益,请联系管理员邮箱,我们将在第一时间删除

关注微信公众号

手机版|小黑屋|海水之声-音乐学习辅导论坛 |网站地图

GMT+8, 2024-6-25 04:25 , Processed in 0.215274 second(s), 7 queries , Redis On.