查看: 124|回复: 2

老鹰乐队《地狱冰封》(94年美国索尼版)[WAV+CUE整轨]

[复制链接]

528

主题

14

回帖

809

金钱

超级版主

积分
1356
发表于 2024-4-21 23:48:57 | 显示全部楼层 |阅读模式
封面.jpg
专辑名称:Hell Freezes Over 地狱冰封
专辑歌手:Eagles 老鹰乐队
发行时间:1994-11-08
唱片公司:Geffen Records
发行地区:美国
专辑语言:英语
专辑版本:美国索尼首版 无IFPI
内圈码:DIDX-024818  2
资源格式:Wav整轨
Back.jpg
专辑介绍:
    发烧友人手一张的试音碟,考验你器材的三频。02 Love Will Keep Us Alive,考验设备的层次和低频。06 Hotel California,考验设备的低频延展和声场定位,以及高频的延展。15 Desperado,考验设备的三频是否均衡。
    摘录一段《CD圣经》对该碟的高度评价:老鹰美国五人乐队七十年代红极一时,他们快歌够劲,劲到爆炸,慢歌够抒情,听极不厌,演出乐器功力深厚,而且节奏感强烈。他们的录音注重声音质素,其中一曲脍炙人口的《HOTEL California》(《加州酒店》)更是经典中的经典,歌声的质感,吉它的音色,鼓声的沉重力感,加上千万人呼叫的现场感,令此曲成为历来最能考验音场、音色、高低频伸延度与动态冲击力的现场录音。
    1990年开始,Don Henley又开始和Glenn Frey一起进行音乐创作,并且时常参与Joe Walsh和Timothy B. Schmit的演出,但是他们从未一同演出过,乐队也一直没有重新复合。直到1994年,The Eagles乐队在解散了长达12年之后终于再次结合在了一起,他们开始在MTV电视台录制节目,并且展开了长达两年时间的世界巡回演唱会,其间录制发行了第二张现场专辑《Hell Freezes Over》迅速成为了排行榜的冠军,并且销量突破了五百万张。
CD.jpg
专辑曲目:
01.Get Over It 超越
02.Love Will Keep Us Alive 爱会拯救我们
03.The Girl From Yesterday 昨日女孩
04.Learn To Be Still 学会沉静
05.Tequila Sunrise 龙舌兰日出
06.Hotel California 加州旅店
07.Wasted Time 挥霍时光
08.Pretty Maids All In a Row 漂亮女仆
09.I Cant Tell You Why 无法解释
10.New York Minute 纽约时分
11.The Last Resort 最终审判
12.Take It Easy 放轻松
13.In The City 城市里
14.Life In The Fast Lane 快线生涯
15.Desperado 亡命之徒

下载地址

老鹰乐队《地狱冰封》(94年美国索尼版)[Wav整轨].zip (访问密码: 6688)

528

主题

14

回帖

809

金钱

超级版主

积分
1356
 楼主| 发表于 2024-4-21 23:50:03 | 显示全部楼层
Exact Audio Copy V1.1 from 23. June 2015

EAC 抓取日志文件从22. 一月 2016, 13:30

The Eagles / Hell Freezes Over

使用驱动器  :TEAC    CD-W540E   Adapter: 0  ID: 0

读取模式      : 可靠Secure
使用精确流     : 是
清空音频缓存    : 是
使用 C2 指示器 : 否

读取偏移校正:               : 686
读取 Lead-In 和 Lead-Out : 否
用静音填充抓取中丢失偏移的采样       : 是
去除首尾静音块               : 否
在CRC 计算中使用了空样本       : 是
已用接口                  : 已安装外部 ASPI 接口

所用输出模式: : 内部 WAV 函数
样本格式    : 44.100 Hz; 16 Bit; 立体声


已抓取 CD 的 TOC

     音轨 |    起始    |    长度    |  起始扇区  |  结束扇区  
    --------------------------------------------
      1 |  0:00.00 |  3:31.02 |      0 |  15826
      2 |  3:31.02 |  4:03.23 |  15827 |  34074
      3 |  7:34.25 |  3:24.00 |  34075 |  49374
      4 | 10:58.25 |  4:28.57 |  49375 |  69531
      5 | 15:27.07 |  3:28.05 |  69532 |  85136
      6 | 18:55.12 |  7:12.03 |  85137 | 117539
      7 | 26:07.15 |  5:19.47 | 117540 | 141511
      8 | 31:26.62 |  4:26.73 | 141512 | 161534
      9 | 35:53.60 |  5:11.20 | 161535 | 184879
     10 | 41:05.05 |  6:37.55 | 184880 | 214709
     11 | 47:42.60 |  7:24.35 | 214710 | 248044
     12 | 55:07.20 |  4:36.22 | 248045 | 268766
     13 | 59:43.42 |  4:07.70 | 268767 | 287361
     14 | 63:51.37 |  6:01.15 | 287362 | 314451
     15 | 69:52.52 |  4:15.15 | 314452 | 333591


范围状态及错误

已选择范围

     文件名 D:\Music\Eagles-Hell Freezes Over[冰封地狱](94年美国索尼版)\Eagles-Hell Freezes Over.wav

     峰值电平 99.8 %
     抓取速度 1.2 X
     范围质量 100.0 %
     复制 CRC 794C4670
     复制成功

没有错误发生


AccurateRip 摘要

音轨  1  精确地校准抓取  64)  [17D11158]  (AR v2)
音轨  2  精确地校准抓取  63)  [2F144DA1]  (AR v2)
音轨  3  精确地校准抓取  66)  [D00A7D29]  (AR v2)
音轨  4  精确地校准抓取  65)  [8C736130]  (AR v2)
音轨  5  精确地校准抓取  65)  [037157F2]  (AR v2)
音轨  6  精确地校准抓取  67)  [E31C3604]  (AR v2)
音轨  7  精确地校准抓取  64)  [91D2DD37]  (AR v2)
音轨  8  精确地校准抓取  65)  [8C8A5B5E]  (AR v2)
音轨  9  精确地校准抓取  65)  [81FA4C86]  (AR v2)
音轨 10  精确地校准抓取  63)  [D89D4413]  (AR v2)
音轨 11  精确地校准抓取  62)  [4846D8F7]  (AR v2)
音轨 12  精确地校准抓取  63)  [9C4B15FA]  (AR v2)
音轨 13  精确地校准抓取  64)  [0C64D229]  (AR v2)
音轨 14  精确地校准抓取  61)  [4987AE83]  (AR v2)
音轨 15  精确地校准抓取  60)  [F277E09B]  (AR v2)

所有音轨精确校准抓取

状态报告结尾

---- CUETools DB Plugin V2.1.6

[CTDB TOCID: Uo7LUTRAJUZGjQp1dZCAS1LpvOY-] found
Submit result: Uo7LUTRAJUZGjQp1dZCAS1LpvOY- has been confirmed
Track | CTDB Status
  1   | (232/244) Accurately ripped
  2   | (238/244) Accurately ripped
  3   | (239/244) Accurately ripped
  4   | (237/244) Accurately ripped
  5   | (238/244) Accurately ripped
  6   | (239/244) Accurately ripped
  7   | (235/244) Accurately ripped
  8   | (237/244) Accurately ripped
  9   | (229/244) Accurately ripped, or (8/244) differs in 489 samples @00:01:09,00:05:36,00:07:24,00:08:70,00:09:12,00:09:47,00:11:35,00:12:11-00:12:12,00:12:29,00:12:63,00:13:05-00:13:06,00:13:57,00:13:74-00:14:00,00:14:17-00:14:18,00:14:51,00:14:68-00:14:69,00:15:11,00:16:05,00:16:22-00:16:23,00:16:57,00:17:33-00:17:34,00:17:68-00:17:69,00:18:11,00:18:28,00:19:04-00:19:05,00:19:22,00:19:56-00:19:57,00:20:16,00:20:50-00:20:51,00:20:68,00:21:10,00:21:45,00:21:62,00:22:04,00:22:21-00:22:22,00:22:39,00:23:15-00:23:16,00:23:33,00:23:50,00:23:67-00:23:68,00:24:27-00:24:28,00:25:21,00:26:15,00:26:68,00:27:44-00:27:45,00:29:15,00:29:67,00:33:44,00:35:67,00:37:04
10   | (238/244) Accurately ripped
11   | (234/244) Accurately ripped, or (2/244) differs in 3 samples @02:37:66,03:09:74
12   | (236/244) Accurately ripped
13   | (237/244) Accurately ripped
14   | (236/244) Accurately ripped
15   | (233/244) Accurately ripped


==== 记录校验日志 435CC9D3A22F5087EC7B16B487F4BB339C0D4B838CA7E789A10D4BEEA18FD24B ====


0

主题

120

回帖

64

金钱

注册会员

积分
184
发表于 5 天前 来自手机 | 显示全部楼层
这个经典,谢谢陈
您需要登录后才可以回帖 登录 | 立即注册

本版积分规则

海水之声

海水音乐

海水VIP

免责声明

论坛功能

投诉维权

帮助中心

论坛公告

联系我们

微信号:wglkyj

QQ:54528858

联系:54528858@qq.com

版权均为原作者所有,仅为网友提供音乐信息的交流与学习的平台

本站不提供任何音乐本地下载,不为其版权负责,服务器不会保存

资源均网友第三方网盘链接分享,侵犯权益请联系第三方申请删除

网页的内容侵犯您权益,请联系管理员邮箱,我们将在第一时间删除

关注微信公众号

手机版|小黑屋|海水之声-音乐学习辅导论坛 |网站地图

GMT+8, 2024-6-18 03:01 , Processed in 0.206007 second(s), 4 queries , Redis On.