查看: 142|回复: 1

谷村新司《谷村新司经典收藏》2024 1:1母版直刻成为不朽的经典 [WAV+CUE]

[复制链接]

590

主题

16

回帖

130

海水币

超级版主

积分
1528
发表于 2024-5-4 09:18:56 | 显示全部楼层 |阅读模式
COVER.jpg
BACK.jpg
CD.jpg

专辑名称:《谷村新司经典收藏》1:1母版直刻
专辑艺人:谷村新司
出版公司:云南音像出版社
发行时间:2024年3月
I  S  B  N: 978-7-8825-1212-8
资源类型:WAV+CUE


专辑介绍:

谷村新司(1948年12月11日-2023年10月8日),日本大阪人,日本流行乐男歌手、音乐家,在日本以及亚洲音乐界享有盛名并具有影响力。曾任上海音乐学院音乐工程系常任教授兼中日音乐文化研究中心顾问等职。
谷村的歌曲《星》最为人所熟悉,并深受各国人民的喜爱,亦被改编成不同的语言版本,成为不朽的经典。一些歌坛巨星亦翻唱过许多他的作品,其中有邓丽君、张学友、罗文、谭咏麟、梅艳芳、关正杰、徐小凤、张国荣等人。他曾经表示张学友和谭咏麟是与他最有默契的香港朋友。其在1984年与韩国歌手赵容弼和香港歌手谭咏麟共同创建百富音乐,中文名为“音乐的和平世界”,旨在推动国家间的文化交流和世界和平。为纪念中日邦交正常化及《中日和平友好条约》缔结,推动中日友好交流,他曾领衔、参加及策划过多场中日歌会及演唱会。
2023年10月8日,谷村新司去世,终年74岁。
中国外交部评论道,谷村先生是日本乐坛著名人物,不少作品在中国脍炙人口,深受中国民众喜爱。谷村先生热心中日人文交流,曾多次来华演出,用音乐架起了两国人民心灵沟通的桥梁,以实际行动为中日友好事业作出了积极贡献。斯人已逝,风范长存。期待两国更多有识之士继往开来,将中日和平友好的乐章世代传唱。


专辑曲目:
01.昴-すばる(星)
02.花
03.浪漫鉄道
04.サライ (故乡)
05.儚きは (虚幻)
06.心花伝
07.秋止符
08.いい日旅立ち (良日启程)
09.風姿花伝
10.流星
11.旅人よ (旅人啊)
12.勇気のカタチ~私を変えてくれたあなたへ~
   (勇气的力量~献给改变了我的你~)
13.最後の I LOVE YOU (最后的我爱你)

Exact Audio Copy V1.1 from 23. June 2015

EAC 抓取日志文件从7. 三月 2024, 0:34

谷村新司 / 经典收藏

使用驱动器  :TEAC    CD-W54E   Adapter: 1  ID: 0

读取模式      : 可靠Secure
使用精确流     : 是
清空音频缓存    : 是
使用 C2 指示器 : 否

读取偏移校正:               : 685
读取 Lead-In 和 Lead-Out : 否
用静音填充抓取中丢失偏移的采样       : 是
去除首尾静音块               : 否
在CRC 计算中使用了空样本       : 是
已用接口                  : Win NT 及 2000 本地 Win32 接口

所用输出模式: : 内部 WAV 函数
样本格式    : 44.100 Hz; 16 Bit; 立体声


已抓取 CD 的 TOC

     音轨 |    起始    |    长度    |  起始扇区  |  结束扇区  
    --------------------------------------------
      1 |  0:00.00 |  4:32.69 |      0 |  20468
      2 |  4:32.69 |  6:10.35 |  20469 |  48253
      3 | 10:43.29 |  4:51.57 |  48254 |  70135
      4 | 15:35.11 |  5:52.00 |  70136 |  96535
      5 | 21:27.11 |  3:51.06 |  96536 | 113866
      6 | 25:18.17 |  4:41.54 | 113867 | 134995
      7 | 29:59.71 |  4:14.59 | 134996 | 154104
      8 | 34:14.55 |  4:23.33 | 154105 | 173862
      9 | 38:38.13 |  5:39.56 | 173863 | 199343
     10 | 44:17.69 |  5:39.47 | 199344 | 224815
     11 | 49:57.41 |  4:37.62 | 224816 | 245652
     12 | 54:35.28 |  4:34.38 | 245653 | 266240
     13 | 59:09.66 |  4:46.11 | 266241 | 287701


范围状态及错误

已选择范围

     文件名 D:\00000七彩v旋律\谷村新司 - 经典收藏.wav

     峰值电平 100.0 %
     抓取速度 1.2 X
     范围质量 100.0 %
     复制 CRC 68A6F2CF
     复制成功

没有错误发生

状态报告结尾

---- CUETools DB Plugin V2.1.6

[CTDB TOCID: ezmC.7NvnSU9OYLyiKtk1p5DifQ-] disk not present in database
Submit result: ezmC.7NvnSU9OYLyiKtk1p5DifQ- has been uploaded

下载地址
谷村新司《经典收藏》[低速原抓WAV+CUE].zip (访问密码: 6688)

0

主题

5

回帖

5

海水币

注册会员

积分
25
发表于 2024-7-7 13:50:08 | 显示全部楼层
是张好专辑的确喜欢
您需要登录后才可以回帖 登录 | 立即注册

本版积分规则

海水之声

海水音乐

海水VIP

免责声明

论坛功能

投诉维权

帮助中心

论坛公告

联系我们

微信号:wglkyj

QQ:54528858

联系:54528858@qq.com

版权均为原作者所有,仅为网友提供音乐信息的交流与学习的平台

本站不提供任何音乐本地下载,不为其版权负责,服务器不会保存

资源均网友第三方网盘链接分享,侵犯权益请联系第三方申请删除

网页的内容侵犯您权益,请联系管理员邮箱,我们将在第一时间删除

关注微信公众号

手机版|小黑屋|海水之声-音乐学习辅导论坛 |网站地图

GMT+8, 2024-7-15 11:26 , Processed in 0.190896 second(s), 6 queries , Redis On.