查看: 121|回复: 0

于源春《文武双全·上HQⅡ》整场音乐会曲目可听、可看性极强[WAV+CUE]

[复制链接]

590

主题

16

回帖

129

海水币

超级版主

积分
1526
发表于 2024-5-3 23:55:08 | 显示全部楼层 |阅读模式
本帖最后由 海水味道 于 2024-5-3 23:57 编辑

COVER.jpg
BACK.jpg
专辑名称:《文武双全上》 HQII
专辑艺人:于源春
发行公司:广州蓝卡文化传播有限公司
出版公司:广东音像出版社
发行时间:2024年3月
I  S  B  N: 978-7-7984-1040-2
资源类型:WAV+CUE
CD.jpg

专辑介绍:

  作为中华民族最具代表性的弹拨乐器之首,琵琶在其两千多年发展历史中,形成了独特的“文、武”曲体系。琵琶文曲,多为以景传情、以物言志,意在写虚的乐曲,传统文曲强调细致入微的左手枝巧,传达思想与情感。而武曲则意在写实,通常都是以形象鲜明的音乐语言,表现有故事情节的、气势恢弘的乐曲,传统上为强调张力,多使用右手枝巧。“文武双全”,顾名思义,是对琵琶丰富表现力的概括,同时也是对演奏家提出的一个要求,音乐里遨游仿佛侠客纵横天地间,文武兼备方能自如自在。本场音乐会中将呈现传统文武曲《春江花月夜》与《楚汉》(著名作曲家姜莹根据十面埋伏与霸王卸甲改编),充满现代音乐语汇与探索精神的当代名作《秦俑》(刘德海曲)与《琵琶辞》(秦文琛曲),传统与前卫相碰撞的重奏作品《早春》与《平衡》(孙晶曲),更有为本次音乐会委约创作的首演作品《关帝云长》(委约王阿毛创作)与王丹红室内乐作品《动感弹拔》,整场音乐会曲目可听、可看性极强,更难得的是把文与武的思维带入传统与现代的不同语境中,对演绎与创作都提供了新的思路。

专辑曲目:
壹 楚汉之战
01.之一
02.之二
03.之三

贰 文武双全
04.之一
05.之二
06.之三

叁 秦俑
07.秦俑

肆 早春
08.早春

07.jpg
02.jpg
Exact Audio Copy V1.1 from 23. June 2015

EAC 抓取日志文件从7. 三月 2024, 13:13

于源春 / 文武双全·上HQⅡ

使用驱动器  :TEAC    CD-W54E   Adapter: 1  ID: 0

读取模式      : 可靠Secure
使用精确流     : 是
清空音频缓存    : 是
使用 C2 指示器 : 否

读取偏移校正:               : 685
读取 Lead-In 和 Lead-Out : 否
用静音填充抓取中丢失偏移的采样       : 是
去除首尾静音块               : 否
在CRC 计算中使用了空样本       : 是
已用接口                  : Win NT 及 2000 本地 Win32 接口

所用输出模式: : 内部 WAV 函数
样本格式    : 44.100 Hz; 16 Bit; 立体声


已抓取 CD 的 TOC

     音轨 |    起始    |    长度    |  起始扇区  |  结束扇区  
    --------------------------------------------
      1 |  0:00.00 |  5:16.05 |      0 |  23704
      2 |  5:16.05 |  2:14.25 |  23705 |  33779
      3 |  7:30.30 |  3:48.72 |  33780 |  50951
      4 | 11:19.27 |  4:24.18 |  50952 |  70769
      5 | 15:43.45 |  2:50.24 |  70770 |  83543
      6 | 18:33.69 |  7:28.53 |  83544 | 117196
      7 | 26:02.47 |  8:29.27 | 117197 | 155398
      8 | 34:31.74 |  6:38.74 | 155399 | 185322


范围状态及错误

已选择范围

     文件名 D:\00000七彩v旋律\于源春 - 文武双全·上HQⅡ.wav

     峰值电平 100.0 %
     抓取速度 1.2 X
     范围质量 100.0 %
     复制 CRC FECEB6E5
     复制成功

没有错误发生

状态报告结尾

---- CUETools DB Plugin V2.1.6

[CTDB TOCID: ayn.duV8l4FmWIci8pFR38kVieQ-] disk not present in database
Submit result: ayn.duV8l4FmWIci8pFR38kVieQ- has been uploaded

下载地址
于源春《文武双全·上HQⅡ》 [WAV+CUE].zip (访问密码: 6688)
您需要登录后才可以回帖 登录 | 立即注册

本版积分规则

海水之声

海水音乐

海水VIP

免责声明

论坛功能

投诉维权

帮助中心

论坛公告

联系我们

微信号:wglkyj

QQ:54528858

联系:54528858@qq.com

版权均为原作者所有,仅为网友提供音乐信息的交流与学习的平台

本站不提供任何音乐本地下载,不为其版权负责,服务器不会保存

资源均网友第三方网盘链接分享,侵犯权益请联系第三方申请删除

网页的内容侵犯您权益,请联系管理员邮箱,我们将在第一时间删除

关注微信公众号

手机版|小黑屋|海水之声-音乐学习辅导论坛 |网站地图

GMT+8, 2024-7-15 10:39 , Processed in 0.196770 second(s), 6 queries , Redis On.