查看: 151|回复: 6

[合集] 群星《英国天朗88周年纪念版》6N纯银镀膜ABC[WAV+CUE/百度盘]

[复制链接]

477

主题

4

回帖

134

海水币

超级版主

积分
1089
发表于 2024-5-11 22:31:43 | 显示全部楼层 |阅读模式
01.jpg
内.jpg
CD内.jpg

专辑名称:英国天朗88周年纪念版
专辑歌手:群星
资源格式:[WAV+CUE整轨(正版原抓)]

曲目:

01.当你对着星星许愿
02.不必如此
03.糖果仙子舞曲
04.对被选少女的颂赞
05.当男人爱上女人
06.不知为何
07.化妆舞会
08.脸贴着脸
09.夜来香
10.艾尔丘克罗
11.苏州夜曲
12.大江东去
13.你的笑影
14.D小调双小提琴协奏曲第一乐章:活泼
15.天鹅
16.单色
17.卡瓦蒂娜
18.革命练习曲
19.华盛顿邮报进行曲
20.广岛蔷薇

下载地址:

游客,如果您要查看本帖隐藏内容请回复
提取码: 4i8v

Exact Audio Copy V1.1 from 23. June 2015

EAC 抓取日志文件从24. 三月 2024, 17:21

群星 / 英国天朗88周年纪念版

使用驱动器  :TEAC    CD-W54E   Adapter: 1  ID: 0

读取模式      : 可靠Secure
使用精确流     : 是
清空音频缓存    : 是
使用 C2 指示器 : 否

读取偏移校正:               : 685
读取 Lead-In 和 Lead-Out : 否
用静音填充抓取中丢失偏移的采样       : 是
去除首尾静音块               : 否
在CRC 计算中使用了空样本       : 是
已用接口                  : Win NT 及 2000 本地 Win32 接口

所用输出模式: : 内部 WAV 函数
样本格式    : 44.100 Hz; 16 Bit; 立体声


已抓取 CD 的 TOC

     音轨 |    起始    |    长度    |  起始扇区  |  结束扇区  
    --------------------------------------------
      1 |  0:00.00 |  1:24.67 |      0 |   6366
      2 |  1:24.67 |  2:27.08 |   6367 |  17399
      3 |  3:52.00 |  1:51.38 |  17400 |  25762
      4 |  5:43.38 |  2:28.17 |  25763 |  36879
      5 |  8:11.55 |  3:51.26 |  36880 |  54230
      6 | 12:03.06 |  4:47.37 |  54231 |  75792
      7 | 16:50.43 |  4:56.17 |  75793 |  98009
      8 | 21:46.60 |  3:53.23 |  98010 | 115507
      9 | 25:40.08 |  5:14.34 | 115508 | 139091
     10 | 30:54.42 |  2:09.02 | 139092 | 148768
     11 | 33:03.44 |  3:20.02 | 148769 | 163770
     12 | 36:23.46 |  3:20.20 | 163771 | 178790
     13 | 39:43.66 |  3:29.10 | 178791 | 194475
     14 | 43:13.01 |  3:23.48 | 194476 | 209748
     15 | 46:36.49 |  2:56.25 | 209749 | 222973
     16 | 49:32.74 |  1:51.10 | 222974 | 231308
     17 | 51:24.09 |  3:46.63 | 231309 | 248321
     18 | 55:10.72 |  2:59.50 | 248322 | 261796
     19 | 58:10.47 |  2:40.18 | 261797 | 273814
     20 | 60:50.65 |  2:25.72 | 273815 | 284761


范围状态及错误

已选择范围

     文件名 E:\群星 - 英国天朗88周年纪念版.wav

     峰值电平 100.0 %
     抓取速度 1.1 X
     范围质量 99.9 %
     复制 CRC DDB33991
     复制成功

没有错误发生

状态报告结尾

---- CUETools DB Plugin V2.1.6

[CTDB TOCID: yz8vAlnuZbjWbQ6qiq22K4HfSQw-] found
Submit result: already submitted
Track | CTDB Status
  1   | (21/21) Accurately ripped
  2   | (21/21) Accurately ripped
  3   | (21/21) Accurately ripped
  4   | (21/21) Accurately ripped
  5   | (21/21) Accurately ripped
  6   | (21/21) Accurately ripped
  7   | (21/21) Accurately ripped
  8   | (21/21) Accurately ripped
  9   | (21/21) Accurately ripped
10   | (21/21) Accurately ripped
11   | (21/21) Accurately ripped
12   | (21/21) Accurately ripped
13   | (21/21) Accurately ripped
14   | (21/21) Accurately ripped
15   | (21/21) Accurately ripped
16   | (21/21) Accurately ripped
17   | (21/21) Accurately ripped
18   | (21/21) Accurately ripped
19   | (21/21) Accurately ripped
20   | (20/21) Accurately ripped

2

主题

99

回帖

9

海水币

注册会员

积分
207
发表于 2024-5-12 07:19:49 来自手机 | 显示全部楼层
音乐心情 发表于 2024-5-11 22:31
专辑名称:英国天朗88周年纪念版
专辑歌手:群星
资源格式:[WAV+CUE整轨(正版原抓)]

谢谢分享!

0

主题

1

回帖

4

海水币

新手上路

积分
18
发表于 2024-6-1 21:39:27 | 显示全部楼层
抓紧收藏.

0

主题

15

回帖

4

海水币

新手上路

积分
47
发表于 2024-6-11 22:52:31 | 显示全部楼层
Thanks.

0

主题

11

回帖

22

海水币

注册会员

积分
116
发表于 2024-6-12 21:33:57 | 显示全部楼层
好资源,感谢分享。

0

主题

120

回帖

2

海水币

注册会员

积分
184
发表于 2024-6-13 01:33:39 来自手机 | 显示全部楼层
天朗的试音碟得听听,谢谢版主

0

主题

6

回帖

2

海水币

新手上路

积分
31
发表于 6 天前 | 显示全部楼层
谢谢分享!
您需要登录后才可以回帖 登录 | 立即注册

本版积分规则

海水之声

海水音乐

海水VIP

免责声明

论坛功能

投诉维权

帮助中心

论坛公告

联系我们

微信号:wglkyj

QQ:54528858

联系:54528858@qq.com

版权均为原作者所有,仅为网友提供音乐信息的交流与学习的平台

本站不提供任何音乐本地下载,不为其版权负责,服务器不会保存

资源均网友第三方网盘链接分享,侵犯权益请联系第三方申请删除

网页的内容侵犯您权益,请联系管理员邮箱,我们将在第一时间删除

关注微信公众号

手机版|小黑屋|海水之声-音乐学习辅导论坛 |网站地图

GMT+8, 2024-6-25 03:27 , Processed in 0.221876 second(s), 12 queries , Redis On.