查看: 54|回复: 0

[专辑] 《2023第十八届南宁(东盟)国际视听展》浩声雅韵 珍藏版纪念CD[WAV+CUE/百度盘]

[复制链接]

465

主题

4

回帖

582

金钱

超级版主

积分
1051
发表于 2024-5-11 21:44:30 | 显示全部楼层 |阅读模式
本帖最后由 音乐心情 于 2024-5-11 21:53 编辑

cover.jpg
back.jpg
CD.jpg
专辑:《2023第十八届南宁(东盟)国际视听展》珍藏版纪念CD
艺人:群星
出品:天弦唱片
时间:2023年12月8日
编号:DCD-5321
类型:HIFI发烧人声试音碟、华语流行曲
资源格式:WAV+CUE整轨(正版原抓)

专辑介绍:

岁末冬日,一年一度的南宁(东盟)国际视听展于2023年12月8-10日如约而至!作为广西最具代表性、最具影响力的文化生活、音响、音乐视听盛会,今年的展会已经稳健地进入到了第十八届!承载着过往成功的足迹和名片的烙印,本届展会地点依旧设在大家非常熟悉的南宁明园饭店举行。

本届展会参观方式依然分为领取“免费参观券”和购买“展会门票”两种;其中的“购买门票”可以获得一张“2023展会珍藏版纪念CD唱片”外,还能参与闭幕大抽奖和享受4000元代金券抵扣优惠等拓展福利,让观众在获得全方位体验音响铭器和感受美妙音乐的同时,更有超值获益。

专辑曲目:

01. 刘紫玲 - 半个月亮爬上来
02. 莫扎特 - 土耳其进行曲Mozart Alla Turca
03. 区瑞强 - 每当变幻时
04. 普罗科菲耶夫 - 密欧与朱丽叶 prokofiev - Romeo and julie
05. 阿梨粤 - 一生何求
06. Joan Baez - Donna Donna 多娜多娜
07. 黄颖秋 - 绒花
08. Harry Belafonte - Merci Bon Dieu 我会好好的
09. 郭宴 - 有谁共鸣
10. 雅诺.胡鮑伊(Jeno Hubay)- 卡门华丽幻想曲
11. 温妮 - 我要你
12. 凰逸欣 - 欶勒歌
13. 科尔沁夫 - 父亲的草原母亲的河
14. 高音(曾用名:高畅)- 绣荷包


下载地址:

游客,如果您要查看本帖隐藏内容请回复
提取码: 4kz4

Exact Audio Copy V1.6 from 23. October 2020

EAC 抓取日志文件从15. 十二月 2023, 20:10

群星 / 浩声雅韵 2023第十八届南宁(东盟)国际视听展

使用驱动器  :YAMAHA  CRW-F1E   Adapter: 1  ID: 0

读取模式      : 可靠Secure
使用精确流     : 是
清空音频缓存    : 是
使用 C2 指示器 : 否

读取偏移校正:               : 733
读取 Lead-In 和 Lead-Out : 否
用静音填充抓取中丢失偏移的采样       : 是
去除首尾静音块               : 否
在CRC 计算中使用了空样本       : 是
已用接口                  : Win NT 及 2000 本地 Win32 接口

所用输出模式: : 内部 WAV 函数
样本格式    : 44.100 Hz; 16 Bit; 立体声


已抓取 CD 的 TOC

     音轨 |    起始    |    长度    |  起始扇区  |  结束扇区  
    --------------------------------------------
      1 |  0:00.00 |  4:11.50 |      0 |  18874
      2 |  4:11.50 |  3:25.50 |  18875 |  34299
      3 |  7:37.25 |  2:50.25 |  34300 |  47074
      4 | 10:27.50 |  2:16.00 |  47075 |  57274
      5 | 12:43.50 |  5:05.25 |  57275 |  80174
      6 | 17:49.00 |  3:16.00 |  80175 |  94874
      7 | 21:05.00 |  4:53.25 |  94875 | 116874
      8 | 25:58.25 |  2:51.00 | 116875 | 129699
      9 | 28:49.25 |  4:12.50 | 129700 | 148649
     10 | 33:02.00 | 10:45.50 | 148650 | 197074
     11 | 43:47.50 |  4:31.50 | 197075 | 217449
     12 | 48:19.25 |  5:39.50 | 217450 | 242924
     13 | 53:59.00 |  6:01.25 | 242925 | 270024
     14 | 60:00.25 |  3:06.24 | 270025 | 283998


范围状态及错误

已选择范围

     文件名 C:\来极品下载论坛下更多极品资源[www.Down512.com]\群星-浩声雅韵 2023第十八届南宁(东盟)国际视听展 原抓WAV+CUE\群星 - 浩声雅韵 2023第十八届南宁(东盟)国际视听展.wav

     峰值电平 97.5 %
     抓取速度 8.4 X
     范围质量 100.0 %
     复制 CRC A242C6C3
     复制成功

没有错误发生


AccurateRip 摘要

音轨  1  在数据库中不存在
音轨  2  在数据库中不存在
音轨  3  在数据库中不存在
音轨  4  在数据库中不存在
音轨  5  在数据库中不存在
音轨  6  在数据库中不存在
音轨  7  在数据库中不存在
音轨  8  在数据库中不存在
音轨  9  在数据库中不存在
音轨 10  在数据库中不存在
音轨 11  在数据库中不存在
音轨 12  在数据库中不存在
音轨 13  在数据库中不存在
音轨 14  在数据库中不存在

没有任何音轨在 AccurateRip 数据库中有记录

状态报告结尾

---- CUETools DB Plugin V2.1.6

[CTDB TOCID: CmuA1ifBfeRXui.XXaQ2zadyF9w-] found
Submit result: CmuA1ifBfeRXui.XXaQ2zadyF9w- has been confirmed
Track | CTDB Status
您需要登录后才可以回帖 登录 | 立即注册

本版积分规则

海水之声

海水音乐

海水VIP

免责声明

论坛功能

投诉维权

帮助中心

论坛公告

联系我们

微信号:wglkyj

QQ:54528858

联系:54528858@qq.com

版权均为原作者所有,仅为网友提供音乐信息的交流与学习的平台

本站不提供任何音乐本地下载,不为其版权负责,服务器不会保存

资源均网友第三方网盘链接分享,侵犯权益请联系第三方申请删除

网页的内容侵犯您权益,请联系管理员邮箱,我们将在第一时间删除

关注微信公众号

手机版|小黑屋|海水之声-音乐学习辅导论坛 |网站地图

GMT+8, 2024-6-18 04:48 , Processed in 0.190174 second(s), 5 queries , Redis On.