查看: 50|回复: 0

[专辑] 《繁花·港乐之旅 HQⅡ》时至今日,仍是经典[WAV+CUE/百度盘]

[复制链接]

465

主题

4

回帖

582

金钱

超级版主

积分
1051
发表于 2024-5-11 23:05:53 | 显示全部楼层 |阅读模式
Cover.jpg
back.jpg
cd.jpg

专辑名称:繁花·港乐之旅 HQⅡ
专辑艺人:群星
出版公司:广东音像出版社有限公司
制作公司:广州声扬文化传播有限公司
发行公司:无比传真唱片
ISBN:978-7-7984-4276-2
发行日期:2024年
资源格式:WAV+CUE

专辑简介:

随着电视剧《繁花》的热播,港乐再次在全国人民中掀起了一波热潮,香港粤语歌坛繁花似锦,创造了太多传奇与故事,时至今日,仍是经典。      二十世纪末,粤语歌曲萌芽兴起,在短短十几年内发展到了顶峰,席卷全国。它不仅是香港流行乐坛的代名词,更一度成为引领流行音乐趋势的主流声音。 二十世
纪七十年代,粤语歌萌芽兴起,与国语歌、英语歌呈三足鼎立的状态。在香港乐坛鼻祖许冠杰的影响下,多名歌星开始转唱粤语歌曲,香港乐坛的春天正在到来。二十世纪八十年代,粤语歌百花齐放,引领了亚洲中文歌曲的潮流。由谭咏麟、陈百强、张国荣、梅艳芳为代表的“三王一后”时代到来,“三王一后”的出现推动香港流行乐坛进入全盛的辉煌时期。二十世纪九十年代,粤语歌黄金时代到来,但亦是香港粤语歌坛最后的光彩。
三王一后”时代结束,进入由张学友、刘德华、黎明、郭富城为代表的“四大天王”时代。     无比传真打造的《繁花·港樂之旅》,收录了1974-1997的经
典粤语歌曲,不仅有HIFI圈内的知名歌手王闻、陈曦,更有香港著名歌星李国祥、张莹倾情演绎,带大家重游百花齐放的香港乐坛。

专辑曲目:

01.旧梦不须记 陈佳
02.月半小夜曲 曼丽
03.偏偏喜欢你 廖百威
04.浪子心声 陈曦
05.余情未了 李国祥
06.双星情歌 张莹
07.一生何求 王闻
08.我等到花儿也谢了 罗琳
09.女人花 陈佳
10.顺流逆流 王闻
11.一千个伤心的理由 罗琳
12.半点心 曼丽
13.深夜港湾 小贤

下载地址:

游客,如果您要查看本帖隐藏内容请回复
提取码: 5fb8

Exact Audio Copy V1.1 from 23. June 2015

EAC 抓取日志文件从28. 三月 2024, 13:36

群星 / 繁花HQⅡ

使用驱动器  :TEAC    CD-W54E   Adapter: 1  ID: 0

读取模式      : 可靠Secure
使用精确流     : 是
清空音频缓存    : 是
使用 C2 指示器 : 否

读取偏移校正:               : 685
读取 Lead-In 和 Lead-Out : 否
用静音填充抓取中丢失偏移的采样       : 是
去除首尾静音块               : 否
在CRC 计算中使用了空样本       : 是
已用接口                  : Win NT 及 2000 本地 Win32 接口

所用输出模式: : 内部 WAV 函数
样本格式    : 44.100 Hz; 128 Bit; 立体声


已抓取 CD 的 TOC

     音轨 |    起始    |    长度    |  起始扇区  |  结束扇区  
    --------------------------------------------
      1 |  0:00.00 |  3:48.37 |      0 |  17136
      2 |  3:48.37 |  4:19.06 |  17137 |  36567
      3 |  8:07.43 |  3:44.41 |  36568 |  53408
      4 | 11:52.09 |  3:36.40 |  53409 |  69648
      5 | 15:28.49 |  3:52.06 |  69649 |  87054
      6 | 19:20.55 |  3:22.33 |  87055 | 102237
      7 | 22:43.13 |  4:43.59 | 102238 | 123521
      8 | 27:26.72 |  4:29.28 | 123522 | 143724
      9 | 31:56.25 |  4:46.29 | 143725 | 165203
     10 | 36:42.54 |  4:27.62 | 165204 | 185290
     11 | 41:10.41 |  4:40.21 | 185291 | 206311
     12 | 45:50.62 |  3:56.02 | 206312 | 224013
     13 | 49:46.64 |  4:43.69 | 224014 | 245307


范围状态及错误

已选择范围

     文件名 D:\群星 - 繁花HQⅡ.wav

     峰值电平 100.0 %
     抓取速度 1.2 X
     范围质量 100.0 %
     复制 CRC DB3521E5
     复制成功

没有错误发生

状态报告结尾

---- CUETools DB Plugin V2.1.6

[CTDB TOCID: SSj.OsiQkIcvu7a2tgbz7WSFKGg-] found
Submit result: SSj.OsiQkIcvu7a2tgbz7WSFKGg- has been confirmed
Track | CTDB Status
  1   | (1/1) Accurately ripped
  2   | (1/1) Accurately ripped
  3   | (1/1) Accurately ripped
  4   | (1/1) Accurately ripped
  5   | (1/1) Accurately ripped
  6   | (1/1) Accurately ripped
  7   | (1/1) Accurately ripped
  8   | (1/1) Accurately ripped
  9   | (1/1) Accurately ripped
10   | (1/1) Accurately ripped
11   | (1/1) Accurately ripped
12   | (1/1) Accurately ripped
13   | (1/1) Accurately ripped

您需要登录后才可以回帖 登录 | 立即注册

本版积分规则

海水之声

海水音乐

海水VIP

免责声明

论坛功能

投诉维权

帮助中心

论坛公告

联系我们

微信号:wglkyj

QQ:54528858

联系:54528858@qq.com

版权均为原作者所有,仅为网友提供音乐信息的交流与学习的平台

本站不提供任何音乐本地下载,不为其版权负责,服务器不会保存

资源均网友第三方网盘链接分享,侵犯权益请联系第三方申请删除

网页的内容侵犯您权益,请联系管理员邮箱,我们将在第一时间删除

关注微信公众号

手机版|小黑屋|海水之声-音乐学习辅导论坛 |网站地图

GMT+8, 2024-6-18 00:51 , Processed in 0.217632 second(s), 5 queries , Redis On.