查看: 152|回复: 0

[合集] 劉珺兒《靓人靓歌VOL.1 2 3 4 5》5CDMVM唱片(馬)有限公司[WAV+CUE]

[复制链接]

592

主题

16

回帖

133

海水币

超级版主

积分
1536
发表于 2024-5-7 14:04:28 | 显示全部楼层 |阅读模式
本帖最后由 海水味道 于 2024-5-15 18:25 编辑

COVER.jpg

劉珺兒 -《靓人靓歌 VOL.1 电视电影点滴回顾[》MVM唱片(馬)有限公司

專輯語言:粵語】
發行公司:MVM唱片(馬)有限公司
唱片編號:MVCD 04-064
資源格式:WAV+CUE

專輯曲目

01. 丝丝泪
02. 鸡公仔
03. 啼笑姻缘
04. 一水隔天涯
05. 换到千般恨
06. 天涯歌女
07. 送君
08. 归帆
09. 哥仔靓
10. 用爱将心偷
11. 堤岸情歌
12. 情花开
13. 心有千千愁
14. 海誓山盟
15. 为情颠倒
16. 人隔万重山


cover.jpg

劉珺兒 -《靓人靓歌VOL.2 50年代回憶詞典》MVM唱片(馬)有限公司
專輯語言:粵語
發行公司:MVM唱片(馬)有限公司
唱片編號:MVCD 04-062
資源格式:WAV+CUE

專輯曲目:

01.何日君再來
02.紅燈綠酒夜
03.一路順風
04.何處覓知音
05.春光普照
06.情如夢
07.山青水秀約君來
08.情愛問題
09.夜來香
10.東山飄雨西山晴
11.美景良辰
12.心聲淚影
13.愛情光陰
14.可愛的春天
15.春來冬去
16.永遠伴著你


cover.jpg
劉珺兒 -《靓人靓歌VOL.3 60年代回憶詞典》MVM唱片(馬)有限公司

專輯語言:粵語
發行公司:MVM唱片(馬)有限公司
唱片編號:MVCD 04-063
資源格式:WAV+CUE

專輯曲目:

01.夜夜相思深(春宵吟)
02.情絲剪不斷(洪湖水浪打浪)
03.紅唇綠酒
04.今宵多珍重
05.綠水青山(高山青)
06.海風寄我情(通通通)
07.紅塵(幾度花落時)
08.快車裏的相思
09.癡癡想你
10.情人情人(午夜香吻)
11.梅花淚(給我回音吧)
12.湖畔盟(愛的苦酒)
13.心事誰人知
14.南島風情(夢在你懷中)
15.好夢最易醒(教我認識你)
16.思君怨(探獄思君)

cover.jpg
劉珺兒 -《靓人靓歌VOL.4 70年代回憶詞典》MVM唱片(馬)有限公司

專輯語言:粵語
發行公司:MVM唱片(馬)有限公司
唱片編號:MVCD 04-064
資源格式:WAV+CUE

專輯曲目:

01.碎心的探戈
02.浮雲抱月
03.塵緣
04.曾爲愛你心更癡
05.離情淚
06.不得了
07.每日懷念你
08.夢斷情天
09.紙船
10.再見情人
11.你是我所有的回憶
12.陪酒
13.明月燈影
14.甜言蜜語
15.嫁你要稔清楚
16.你怎麽說


COVER.jpg

劉珺兒 -《靓人靓歌 VOL.5 难忘广东小曲精华》MVM唱片(馬)有限公司

專輯語言:粵语
發行公司:MVM唱片(馬)有限公司
唱片編號:MVCD 04-064
資源格式:WAV+CUE

專輯曲目

01.風飄飄
02.紅豆相思
03.秋月
04.相逢恨晚
05.載歌載舞
06.相識也是緣份
07.鴛鴦江月夜
08.係唔係嘅啫
09.花開蝶滿枝
10.點解我鐘意佢
11.十一哥
12.分飛燕
13.車衣妹萬歲
14.蝶愛花
15.心上人兒在那方
16.唔嫁
17.南歸雁

下载地址:
刘珺儿2004 - 靓人靓歌 VOL.1 电视电影点滴回顾[音乐谷][WAV+CUE].zip (访问密码: 6688)
刘珺儿2004 - 靓人靓歌 VOL.2 50年代回忆词典[音乐谷][WAV+CUE].zip (访问密码: 6688)
刘珺儿2004 - 靓人靓歌 VOL.3 60年代回忆词典[音乐谷][WAV+CUE].zip (访问密码: 6688)
刘珺儿2004 - 靓人靓歌 VOL.4 70年代回忆词典[音乐谷][WAV+CUE].zip (访问密码: 6688)
刘珺儿2004 - 靓人靓歌 VOL.5 难忘广东小曲精华[音乐谷][WAV+CUE].zip (访问密码: 6688)

Exact Audio Copy V1.1 from 23. June 2015

EAC 抓取日志文件从16. 五月 2021, 15:55

刘珺儿 / 靓人靓歌5

使用驱动器  :TEAC    CD-W54E   Adapter: 1  ID: 0

读取模式      : 可靠Secure
使用精确流     : 是
清空音频缓存    : 是
使用 C2 指示器 : 否

读取偏移校正:               : 685
读取 Lead-In 和 Lead-Out : 否
用静音填充抓取中丢失偏移的采样       : 是
去除首尾静音块               : 否
在CRC 计算中使用了空样本       : 是
已用接口                  : Win NT 及 2000 本地 Win32 接口

所用输出模式: : 内部 WAV 函数
样本格式    : 44.100 Hz; 16 Bit; 立体声


已抓取 CD 的 TOC

     音轨 |    起始    |    长度    |  起始扇区  |  结束扇区  
    --------------------------------------------
      1 |  0:00.00 |  3:23.55 |      0 |  15279
      2 |  3:23.55 |  3:14.36 |  15280 |  29865
      3 |  6:38.16 |  2:54.70 |  29866 |  42985
      4 |  9:33.11 |  3:01.03 |  42986 |  56563
      5 | 12:34.14 |  2:54.45 |  56564 |  69658
      6 | 15:28.59 |  3:46.48 |  69659 |  86656
      7 | 19:15.32 |  3:03.73 |  86657 | 100454
      8 | 22:19.30 |  3:49.46 | 100455 | 117675
      9 | 26:09.01 |  3:46.20 | 117676 | 134645
     10 | 29:55.21 |  2:32.67 | 134646 | 146112
     11 | 32:28.13 |  2:54.56 | 146113 | 159218
     12 | 35:22.69 |  3:33.63 | 159219 | 175256
     13 | 38:56.57 |  2:46.73 | 175257 | 187779
     14 | 41:43.55 |  2:53.41 | 187780 | 200795
     15 | 44:37.21 |  2:58.58 | 200796 | 214203
     16 | 47:36.04 |  2:51.61 | 214204 | 227089
     17 | 50:27.65 |  2:25.67 | 227090 | 238031


范围状态及错误

已选择范围

     文件名 D:\刘珺儿 - 靓人靓歌5.wav

     峰值电平 100.0 %
     抓取速度 2.5 X
     范围质量 100.0 %
     复制 CRC 7CBBDE77
     复制成功

没有错误发生

状态报告结尾

---- CUETools DB Plugin V2.1.6

[CTDB TOCID: 64zeRbcLqcavliDxwJbQalQWc6A-] disk not present in database
Submit result: 64zeRbcLqcavliDxwJbQalQWc6A- has been uploaded

您需要登录后才可以回帖 登录 | 立即注册

本版积分规则

海水之声

海水音乐

海水VIP

免责声明

论坛功能

投诉维权

帮助中心

论坛公告

联系我们

微信号:wglkyj

QQ:54528858

联系:54528858@qq.com

版权均为原作者所有,仅为网友提供音乐信息的交流与学习的平台

本站不提供任何音乐本地下载,不为其版权负责,服务器不会保存

资源均网友第三方网盘链接分享,侵犯权益请联系第三方申请删除

网页的内容侵犯您权益,请联系管理员邮箱,我们将在第一时间删除

关注微信公众号

手机版|小黑屋|海水之声-音乐学习辅导论坛 |网站地图

GMT+8, 2024-7-20 11:14 , Processed in 0.207204 second(s), 5 queries , Redis On.