查看: 101|回复: 4

[专辑] 《BAND SOUND - 香港BAND 坛盛世回忆录》3CD[WAV+CUE/BD]

[复制链接]

7

主题

1

回帖

21

金钱

新手上路

积分
29
发表于 2024-5-27 00:18:55 | 显示全部楼层 |阅读模式
本帖最后由 大风大雨 于 2024-5-27 00:23 编辑

cover.jpg
专辑名称: BAND SOUND -香港BAND 坛盛世回忆录 (3CD)      
出版公司: 正東
发行时间:2006
资源格式:WAV+CUE整轨
语言:粤语
出品商:环球唱片
back.jpg
专辑介绍:
   虽然香港的乐队和摇滚乐这些年来也未能成为可跟 K 歌鼎足的势力,成为乐坛的一道主流,可是在香港歌坛的发展史上,的确曾出现过不少杰出而经典的乐队组合,就像一直领前的 Beyond、去年举行过廿年纪念演唱会的太极、仍然活跃的达明一派等。他们有些虽或已退隐,有些或已解散发展,但他们的努力,的确为乐坛写下过重要而光辉的一页,给过乐迷不同的选择。
  正东近日推出的这张《Band Sound (香港 Band 坛盛世回忆录)》,就以“怀缅香港乐队的光辉岁月”和“我们昔日的年青岁月”作口号,收录了十二队本地乐队昔日共四十八首旧歌,让乐迷回味一下过去的本地 Band Sound,同时也是给年轻乐迷见识一下香港音乐过去的其中一个面貌。
  碟里收录的十二队乐队分别为:Beyond、小岛、太极、Radias、达明一派、小岛、浮世绘、凡风、Blue Jeans、 CoCos、Fundmental和 City Beat,十居其九都是乐迷熟悉的乐队,各有自己的风格。至于碟内所选的歌曲,也不乏一些精彩的歌曲和这些乐队的成名作、代表作,例如《倾心》、《红色跑车》、《石头记》、《光辉岁月》、《岂有此理》等。如果对粤语 Band Sound 有兴趣,这碟的确是一个理想的选择。
disc1.jpg

CD 1
01. 她的心 小岛
02. 云在变 小岛
03. 暴风红唇 太极
04. 他 太极
05. 红色跑车 太极
06. Dance All Nite 太极
07. 吸烟的女人 Raidas
08. 继续追寻 达明一派
09. 画匠 小岛
10. 又是黄昏 小岛
11. 冻结的印 小岛
12. 呐喊 太极
13. 迷途 太极
14. 缘 太极
15. Celia 太极
16. 忧伤都市 浮世绘
disc2.jpg
CD 2
01. 中国饭店 凡风
02. 谁愿要我 凡风
03. 禁区 太极
04. 欠 太极
05. 石头记 达明一派
06. 无风的季节 达明一派
07. 马路天使 达明一派
08. 永远等待 Beyond
09. 昔日舞曲 Beyond
10. 传说 Raidas
11. 别人的歌 Raidas
12. 倾心 Raidas
13. 今夜星光灿烂 达明一派
14. 溜冰滚族 达明一派
15. 岂有此理 Blue Jeans
16. 蓝战士 Blue Jeans
disc3.jpg
Disc 3
01. 旧日的足迹 Beyond
02. 冷雨夜 Beyond
03. 热炽的心窝 CoCos
04. **舞影 Fundamental
05. 没有路人的都市 Raidas
06. 大地 Beyond
07. 全人类高歌 太极
08. 守望你 City Beat
09. 暖流 City Beat
10. 下雨天 Blue Jeans/林忆莲
11. 岁月无声 Beyond
12. 留住我吧 太极
13. 月满繁星夜 浮世绘
14. 知道不知道 浮世绘
15. 光辉岁月 Beyond
16. Crystal 太极

下载链接:

游客,如果您要查看本帖隐藏内容请回复
提取码: 5si3


Exact Audio Copy V1.0 beta 3 from 29. August 2011

EAC extraction logfile from 20. December 2015, 16:02

Various / BAND SOUND - 香港BAND 壇盛世回憶錄 Disc 1

Used drive  : HL-DT-STDVDRAM GH24NS95   Adapter: 2  ID: 0

Read mode               : Secure
Utilize accurate stream : Yes
Defeat audio cache      : Yes
Make use of C2 pointers : No

Read offset correction                      : 6
Overread into Lead-In and Lead-Out          : No
Fill up missing offset samples with silence : Yes
Delete leading and trailing silent blocks   : No
Null samples used in CRC calculations       : Yes
Used interface                              : Native Win32 interface for Win NT & 2000

Used output format : Internal WAV Routines
Sample format      : 44.100 Hz; 16 Bit; Stereo


TOC of the extracted CD

     Track |   Start  |  Length  | Start sector | End sector
    ---------------------------------------------------------
        1  |  0:00.00 |  4:04.21 |         0    |    18320   
        2  |  4:04.21 |  4:14.25 |     18321    |    37395   
        3  |  8:18.46 |  3:29.24 |     37396    |    53094   
        4  | 11:47.70 |  4:26.26 |     53095    |    73070   
        5  | 16:14.21 |  3:24.23 |     73071    |    88393   
        6  | 19:38.44 |  4:26.74 |     88394    |   108417   
        7  | 24:05.43 |  3:02.13 |    108418    |   122080   
        8  | 27:07.56 |  5:47.03 |    122081    |   148108   
        9  | 32:54.59 |  4:01.10 |    148109    |   166193   
       10  | 36:55.69 |  4:24.04 |    166194    |   185997   
       11  | 41:19.73 |  4:52.58 |    185998    |   207955   
       12  | 46:12.56 |  2:01.17 |    207956    |   217047   
       13  | 48:13.73 |  4:24.45 |    217048    |   236892   
       14  | 52:38.43 |  4:30.21 |    236893    |   257163   
       15  | 57:08.64 |  3:12.16 |    257164    |   271579   
       16  | 60:21.05 |  4:42.24 |    271580    |   292753   


Range status and errors

Selected range

     Filename L:\po881\BAND SOUND - 香港BAND 壇盛世回憶錄 Disc 1\CDImage.wav

     Peak level 100.0 %
     Extraction speed 3.1 X
     Range quality 100.0 %
     Copy CRC 8E8E6BCB
     Copy OK

No errors occurred


AccurateRip summary

Track  1  accurately ripped (confidence 3)  [CB02DF83]  (AR v2)
Track  2  accurately ripped (confidence 3)  [E6DFB40F]  (AR v2)
Track  3  accurately ripped (confidence 3)  [67F400D6]  (AR v2)
Track  4  accurately ripped (confidence 3)  [067C08C6]  (AR v2)
Track  5  accurately ripped (confidence 3)  [2C93D5F0]  (AR v2)
Track  6  accurately ripped (confidence 2)  [4D9002D0]  (AR v2)
Track  7  accurately ripped (confidence 3)  [8D61FCEF]  (AR v2)
Track  8  accurately ripped (confidence 3)  [98472C59]  (AR v2)
Track  9  accurately ripped (confidence 3)  [8F58F4FC]  (AR v2)
Track 10  accurately ripped (confidence 3)  [821D0F58]  (AR v2)
Track 11  accurately ripped (confidence 3)  [D73B271B]  (AR v2)
Track 12  accurately ripped (confidence 3)  [017C3898]  (AR v2)
Track 13  accurately ripped (confidence 3)  [E959EDC3]  (AR v2)
Track 14  accurately ripped (confidence 3)  [2B3FB821]  (AR v2)
Track 15  accurately ripped (confidence 3)  [0FD6B56F]  (AR v2)
Track 16  accurately ripped (confidence 3)  [A6C6CB28]  (AR v2)

All tracks accurately ripped

End of status report

---- CUETools DB Plugin V2.1.3

[CTDB TOCID: fLiBwUpNiPbDUj4iYFhA93PP8HU-] found, Submit result: fLiBwUpNiPbDUj4iYFhA93PP8HU- has been confirmed
[ff3871bf] (1/5) Differs in 17 samples @22:29:29,22:30:09,22:33:01,22:33:41,22:34:20
[33aa19d1] (4/5) Accurately ripped
You can use CUETools to repair this rip.


==== Log checksum 42A6459AE2DA623A4B6D38C8F9BD19A23AFEA9A73467EECC1F82C73B177F8988 ====

0

主题

10

回帖

107

金钱

注册会员

积分
117
发表于 2024-5-27 15:25:14 | 显示全部楼层
没什么能描述我现在的心情,感谢论坛!

2

主题

76

回帖

85

金钱

注册会员

积分
165
发表于 2024-5-29 05:39:03 来自手机 | 显示全部楼层
谢谢分享!

0

主题

5

回帖

88

金钱

注册会员

积分
93
发表于 2024-5-29 22:24:10 | 显示全部楼层
乐队中的经典,感谢分享。

0

主题

2

回帖

12

金钱

新手上路

积分
14
发表于 2024-6-2 16:29:18 | 显示全部楼层
感谢分享
您需要登录后才可以回帖 登录 | 立即注册

本版积分规则

海水之声

海水音乐

海水VIP

免责声明

论坛功能

投诉维权

帮助中心

论坛公告

联系我们

微信号:wglkyj

QQ:54528858

联系:54528858@qq.com

版权均为原作者所有,仅为网友提供音乐信息的交流与学习的平台

本站不提供任何音乐本地下载,不为其版权负责,服务器不会保存

资源均网友第三方网盘链接分享,侵犯权益请联系第三方申请删除

网页的内容侵犯您权益,请联系管理员邮箱,我们将在第一时间删除

关注微信公众号

手机版|小黑屋|海水之声-音乐学习辅导论坛 |网站地图

GMT+8, 2024-6-18 00:10 , Processed in 0.240839 second(s), 4 queries , Redis On.