查看: 86|回复: 0

周杰倫《魔杰座》“最后的战役”亦来势汹汹![原抓WAV+CUE]

[复制链接]

592

主题

16

回帖

133

海水币

超级版主

积分
1536
发表于 2024-5-4 14:45:18 | 显示全部楼层 |阅读模式
周杰倫 - 魔杰座.jpg
表演者: 周杰伦 
流派: 流行 
专辑类型: 专辑 
介质: CD 
发行时间: 2008-10-09 
出版者: 新力博德曼 
唱片数: 1 
条形码: 0886974013075 
ISRC(中国): CNE040846000

专辑曲目:

01、龙战骑士
02、给我一首歌的时间
03、蛇舞
04、花海
05、魔术先生
06、说好的幸福呢
07、兰亭序
08、流浪诗人
09、时光机
10、乔克叔叔
11、稻香

Exact Audio Copy V1.6 from 23. October 2020

EAC 抓取日志文件从23. 四月 2024, 20:01

周杰倫 / 魔杰座

使用驱动器  :PIONEER DVD-RW  DVR-221L   Adapter: 1  ID: 0

读取模式      : 可靠Secure
使用精确流     : 是
清空音频缓存    : 否
使用 C2 指示器 : 否

读取偏移校正:               : 6
读取 Lead-In 和 Lead-Out : 否
用静音填充抓取中丢失偏移的采样       : 是
去除首尾静音块               : 否
在CRC 计算中使用了空样本       : 是
已用接口                  : Win NT 及 2000 本地 Win32 接口

所用输出模式: : 内部 WAV 函数
样本格式    : 44.100 Hz; 16 Bit; 立体声


已抓取 CD 的 TOC

     音轨 |    起始    |    长度    |  起始扇区  |  结束扇区  
    --------------------------------------------
      1 |  0:00.00 |  4:31.11 |      0 |  20335
      2 |  4:31.11 |  4:13.42 |  20336 |  39352
      3 |  8:44.53 |  2:54.57 |  39353 |  52459
      4 | 11:39.35 |  4:24.06 |  52460 |  72265
      5 | 16:03.41 |  3:47.54 |  72266 |  89344
      6 | 19:51.20 |  4:16.54 |  89345 | 108598
      7 | 24:07.74 |  4:13.72 | 108599 | 127645
      8 | 28:21.71 |  2:49.10 | 127646 | 140330
      9 | 31:11.06 |  5:11.74 | 140331 | 163729
     10 | 36:23.05 |  4:16.45 | 163730 | 182974
     11 | 40:39.50 |  3:43.34 | 182975 | 199733


范围状态及错误

已选择范围

     文件名 D:\26602\Music\周杰倫 - 魔杰座\周杰倫 - 魔杰座.wav

     峰值电平 100.0 %
     抓取速度 2.8 X
     范围质量 100.0 %
     复制 CRC 526EAA17
     复制成功

没有错误发生


AccurateRip 摘要

音轨  1  精确地校准抓取  8)  [5069444E]  (AR v2)
音轨  2  精确地校准抓取  8)  [BA04702E]  (AR v2)
音轨  3  精确地校准抓取  8)  [96FA131C]  (AR v2)
音轨  4  精确地校准抓取  8)  [9F74D980]  (AR v2)
音轨  5  精确地校准抓取  8)  [0A11D764]  (AR v2)
音轨  6  精确地校准抓取  8)  [8B4017E5]  (AR v2)
音轨  7  精确地校准抓取  8)  [DBA1300A]  (AR v2)
音轨  8  精确地校准抓取  8)  [29CD5D47]  (AR v2)
音轨  9  精确地校准抓取  8)  [4C77AA2D]  (AR v2)
音轨 10  精确地校准抓取  8)  [EBEE81A8]  (AR v2)
音轨 11  精确地校准抓取  8)  [911C1627]  (AR v2)

所有音轨精确校准抓取

状态报告结尾

---- CUETools DB Plugin V2.1.6

[CTDB TOCID: K2SquGgt5cucLdykUxwKDiuk908-] found
Submit result: already submitted
Track | CTDB Status
  1   | (389/390) Accurately ripped
  2   | (387/390) Accurately ripped
  3   | (385/390) Accurately ripped
  4   | (387/390) Accurately ripped
  5   | (387/390) Accurately ripped
  6   | (382/390) Accurately ripped
  7   | (386/390) Accurately ripped
  8   | (384/390) Accurately ripped
  9   | (383/390) Accurately ripped
10   | (386/390) Accurately ripped
11   | (385/390) Accurately ripped

下载地址
周杰倫 - 魔杰座[WAV+CUElog].zip (访问密码: 6688)
您需要登录后才可以回帖 登录 | 立即注册

本版积分规则

海水之声

海水音乐

海水VIP

免责声明

论坛功能

投诉维权

帮助中心

论坛公告

联系我们

微信号:wglkyj

QQ:54528858

联系:54528858@qq.com

版权均为原作者所有,仅为网友提供音乐信息的交流与学习的平台

本站不提供任何音乐本地下载,不为其版权负责,服务器不会保存

资源均网友第三方网盘链接分享,侵犯权益请联系第三方申请删除

网页的内容侵犯您权益,请联系管理员邮箱,我们将在第一时间删除

关注微信公众号

手机版|小黑屋|海水之声-音乐学习辅导论坛 |网站地图

GMT+8, 2024-7-23 01:58 , Processed in 0.183254 second(s), 5 queries , Redis On.