查看: 90|回复: 0

周杰倫《葉惠美》是周杰伦于2003年发行的专辑[原抓WAV+CUE]

[复制链接]

590

主题

16

回帖

129

海水币

超级版主

积分
1526
发表于 2024-5-4 15:03:57 | 显示全部楼层 |阅读模式
folder.jpg
专辑介绍:

《叶惠美》是周杰伦于2003年发行的专辑,共收录了11首歌曲。专辑的制作人由周杰伦担任。2004年,该专辑获得了第15届金曲奖最佳流行音乐演唱专辑奖、新城国语力颁奖礼新城国语力亚洲大碟奖、第四届全球华语歌曲排行榜颁奖典礼年度最受欢迎专辑奖

专辑曲目:

01 以父之名
02 懦夫
03 晴天
04 三年二班
05 东风破
06 你听得到
07 同一种调调
08 她的睫毛
09 爱情悬崖
10 梯田
11 双刀
Exact Audio Copy V1.6 from 23. October 2020

EAC 抓取日志文件从23. 四月 2024, 18:05

周杰倫 / 葉惠美

使用驱动器  :PIONEER DVD-RW  DVR-221L   Adapter: 1  ID: 0

读取模式      : 可靠Secure
使用精确流     : 是
清空音频缓存    : 否
使用 C2 指示器 : 否

读取偏移校正:               : 6
读取 Lead-In 和 Lead-Out : 否
用静音填充抓取中丢失偏移的采样       : 是
去除首尾静音块               : 否
在CRC 计算中使用了空样本       : 是
已用接口                  : Win NT 及 2000 本地 Win32 接口

所用输出模式: : 内部 WAV 函数
样本格式    : 44.100 Hz; 16 Bit; 立体声


已抓取 CD 的 TOC

     音轨 |    起始    |    长度    |  起始扇区  |  结束扇区  
    --------------------------------------------
      1 |  0:00.00 |  5:42.00 |      0 |  25649
      2 |  5:42.00 |  3:38.00 |  25650 |  41999
      3 |  9:20.00 |  4:29.56 |  42000 |  62230
      4 | 13:49.56 |  4:40.29 |  62231 |  83259
      5 | 18:30.10 |  5:15.31 |  83260 | 106915
      6 | 23:45.41 |  3:50.36 | 106916 | 124201
      7 | 27:36.02 |  3:51.00 | 124202 | 141526
      8 | 31:27.02 |  3:52.67 | 141527 | 158993
      9 | 35:19.69 |  4:22.16 | 158994 | 178659
     10 | 39:42.10 |  3:33.26 | 178660 | 194660
     11 | 43:15.36 |  4:51.30 | 194661 | 216515


范围状态及错误

已选择范围

     文件名 D:\26602\Music\周杰倫 - 葉惠美\周杰倫 - 葉惠美.wav

     峰值电平 100.0 %
     抓取速度 2.9 X
     范围质量 100.0 %
     复制 CRC 812AE6FA
     复制成功

没有错误发生


AccurateRip 摘要

音轨  1  精确地校准抓取  6)  [F4A9B6BF]  (AR v2)
音轨  2  精确地校准抓取  6)  [74B6CD02]  (AR v2)
音轨  3  精确地校准抓取  6)  [479D4B00]  (AR v2)
音轨  4  精确地校准抓取  6)  [44B9DB0C]  (AR v2)
音轨  5  精确地校准抓取  6)  [A8AD7AAD]  (AR v2)
音轨  6  精确地校准抓取  6)  [3980C37A]  (AR v2)
音轨  7  精确地校准抓取  6)  [4372FF0D]  (AR v2)
音轨  8  精确地校准抓取  6)  [03A6647D]  (AR v2)
音轨  9  精确地校准抓取  6)  [8C52EE22]  (AR v2)
音轨 10  精确地校准抓取  6)  [0937ACC4]  (AR v2)
音轨 11  精确地校准抓取  6)  [841F3D7D]  (AR v2)

所有音轨精确校准抓取

状态报告结尾

---- CUETools DB Plugin V2.1.6

[CTDB TOCID: rYqaaaWf5XrZe9Eyz5Z5qCkdhBk-] found
Submit result: already submitted
Track | CTDB Status
  1   | (178/178) Accurately ripped
  2   | (178/178) Accurately ripped
  3   | (178/178) Accurately ripped
  4   | (178/178) Accurately ripped
  5   | (178/178) Accurately ripped
  6   | (178/178) Accurately ripped
  7   | (178/178) Accurately ripped
  8   | (178/178) Accurately ripped
  9   | (178/178) Accurately ripped
10   | (178/178) Accurately ripped
11   | (176/178) Accurately ripped

下载地址
周杰倫 - 葉惠美[WAV+CUElog].zip (访问密码: 6688)
您需要登录后才可以回帖 登录 | 立即注册

本版积分规则

海水之声

海水音乐

海水VIP

免责声明

论坛功能

投诉维权

帮助中心

论坛公告

联系我们

微信号:wglkyj

QQ:54528858

联系:54528858@qq.com

版权均为原作者所有,仅为网友提供音乐信息的交流与学习的平台

本站不提供任何音乐本地下载,不为其版权负责,服务器不会保存

资源均网友第三方网盘链接分享,侵犯权益请联系第三方申请删除

网页的内容侵犯您权益,请联系管理员邮箱,我们将在第一时间删除

关注微信公众号

手机版|小黑屋|海水之声-音乐学习辅导论坛 |网站地图

GMT+8, 2024-7-15 09:24 , Processed in 0.181996 second(s), 5 queries , Redis On.