查看: 156|回复: 0

周杰倫《CARNIVAL 2CD》周杰伦2024 来日記念 ALBUM专辑[原抓WAV+CUE]

[复制链接]

592

主题

16

回帖

133

海水币

超级版主

积分
1536
发表于 2024-5-4 10:29:47 | 显示全部楼层 |阅读模式
本帖最后由 海水味道 于 2024-5-4 14:02 编辑

01.png
02.png
周杰伦 2024 来日記念 ALBUM「CARNIVAL」】
通常盘的特典为明信片
豪华盘是通常的歌曲内容+周边+限定包装set,特典是行李牌
收录的歌曲都是经典老歌,没有前两天的新歌《圣诞星》
ayChou ジェイチョウ
約16年振り日本公演開催記念㊗
2024 来日記念 ALBUM「CARNIVAL」
4月3日発売決定👏

アルバムには全30曲が収録✨
通常盤の他、グッズ付きDeluxe Editionも
03.png

下载地址
周杰倫 - ''CARNIVAL''[WAV+CUE log].zip (访问密码: 6688)
Exact Audio Copy V1.6 from 23. October 2020

EAC 抓取日志文件从23. 四月 2024, 20:55

周杰倫 / "CARNIVAL"

使用驱动器  :PIONEER DVD-RW  DVR-221L   Adapter: 1  ID: 0

读取模式      : 可靠Secure
使用精确流     : 是
清空音频缓存    : 否
使用 C2 指示器 : 否

读取偏移校正:               : 6
读取 Lead-In 和 Lead-Out : 否
用静音填充抓取中丢失偏移的采样       : 是
去除首尾静音块               : 否
在CRC 计算中使用了空样本       : 是
已用接口                  : Win NT 及 2000 本地 Win32 接口

所用输出模式: : 内部 WAV 函数
样本格式    : 44.100 Hz; 16 Bit; 立体声


已抓取 CD 的 TOC

     音轨 |    起始    |    长度    |  起始扇区  |  结束扇区  
    --------------------------------------------
      1 |  0:00.00 |  3:42.23 |      0 |  16672
      2 |  3:42.23 |  4:16.49 |  16673 |  35921
      3 |  7:58.72 |  3:05.55 |  35922 |  49851
      4 | 11:04.52 |  4:31.02 |  49852 |  70178
      5 | 15:35.54 |  3:07.31 |  70179 |  84234
      6 | 18:43.10 |  3:54.49 |  84235 | 101833
      7 | 22:37.59 |  3:34.03 | 101834 | 117886
      8 | 26:11.62 |  4:18.49 | 117887 | 137285
      9 | 30:30.36 |  4:32.58 | 137286 | 157743
     10 | 35:03.19 |  4:12.52 | 157744 | 176695
     11 | 39:15.71 |  4:23.63 | 176696 | 196483
     12 | 43:39.59 |  3:45.17 | 196484 | 213375
     13 | 47:25.01 |  2:45.72 | 213376 | 225822
     14 | 50:10.73 |  4:21.71 | 225823 | 245468
     15 | 54:32.69 |  3:58.57 | 245469 | 263375


范围状态及错误

已选择范围

     文件名 D:\26602\Music\周杰倫 - ''CARNIVAL''\周杰倫 - ''CARNIVAL''.wav

     峰值电平 97.4 %
     抓取速度 2.9 X
     范围质量 100.0 %
     复制 CRC 3561873F
     复制成功

没有错误发生


AccurateRip 摘要

音轨  1  在数据库中不存在
音轨  2  在数据库中不存在
音轨  3  在数据库中不存在
音轨  4  在数据库中不存在
音轨  5  在数据库中不存在
音轨  6  在数据库中不存在
音轨  7  在数据库中不存在
音轨  8  在数据库中不存在
音轨  9  在数据库中不存在
音轨 10  在数据库中不存在
音轨 11  在数据库中不存在
音轨 12  在数据库中不存在
音轨 13  在数据库中不存在
音轨 14  在数据库中不存在
音轨 15  在数据库中不存在

没有任何音轨在 AccurateRip 数据库中有记录

状态报告结尾

---- CUETools DB Plugin V2.1.6

[CTDB TOCID: fPmN2B0etTPc1NMA6XWe3aO9pL4-] found
Submit result: fPmN2B0etTPc1NMA6XWe3aO9pL4- has been confirmed
Track | CTDB Status
  1   | (5/5) Accurately ripped
  2   | (5/5) Accurately ripped
  3   | (5/5) Accurately ripped
  4   | (5/5) Accurately ripped
  5   | (5/5) Accurately ripped
  6   | (5/5) Accurately ripped
  7   | (5/5) Accurately ripped
  8   | (5/5) Accurately ripped
  9   | (5/5) Accurately ripped
10   | (5/5) Accurately ripped
11   | (5/5) Accurately ripped
12   | (5/5) Accurately ripped
13   | (5/5) Accurately ripped
14   | (5/5) Accurately ripped
15   | (5/5) Accurately ripped

您需要登录后才可以回帖 登录 | 立即注册

本版积分规则

海水之声

海水音乐

海水VIP

免责声明

论坛功能

投诉维权

帮助中心

论坛公告

联系我们

微信号:wglkyj

QQ:54528858

联系:54528858@qq.com

版权均为原作者所有,仅为网友提供音乐信息的交流与学习的平台

本站不提供任何音乐本地下载,不为其版权负责,服务器不会保存

资源均网友第三方网盘链接分享,侵犯权益请联系第三方申请删除

网页的内容侵犯您权益,请联系管理员邮箱,我们将在第一时间删除

关注微信公众号

手机版|小黑屋|海水之声-音乐学习辅导论坛 |网站地图

GMT+8, 2024-7-20 11:47 , Processed in 0.199686 second(s), 5 queries , Redis On.