查看: 88|回复: 0

周杰倫《我很忙》第16届台湾金曲奖年度最佳专辑提名[原抓WAV+CUE]

[复制链接]

592

主题

16

回帖

133

海水币

超级版主

积分
1536
发表于 2024-5-4 14:58:23 | 显示全部楼层 |阅读模式
周杰倫 - 我很忙.jpg
周杰伦的第八张专辑《我很忙》(JAY CHOU ON THE RUN)在自己新公司的精心策划下,Jay以让人眼睛为之一亮的牛仔造型给大家一个惊喜,全新的视觉与音乐风格,让周杰伦变得和以往不一样,but,I means 不一样的精彩,呵呵~与之前的《依然范特西》风格完全不一样哟~

X-Force从最最最早期很不喜欢周杰伦到现在转变为期待他的新专辑,不得不说,除了他自身的努力与他的创作能力,我更有点被他的天赋所吸引,也可以说是才华吧。。呵呵。的确,很多Jay的歌都非常的不错的。X-Force特别喜欢他的慢歌,这次的《彩虹》就是不错。因为我一般都不喜欢快歌的。。

首波主打『牛仔很忙』是周杰伦与作词者黄俊郎共同催生出的新曲风。杰伦新作中的牛仔很忙,很有正义感,杰伦说:一般音乐创作大多先有音乐才会有画面,而我这次是倒过来完成的,有了影像的想法、造型上比较西部复古一点,才写了这首歌,这正是我之前所有专辑没有过的曲风,我自己也蛮喜欢的。我会尽情在音乐上做些挑战,像写些牛仔之类的歌,虽然不是主流,但我相信它将来一定会变成主流,也能带动流行,我很愿意冲。

曲目:
1、牛仔很忙
2、彩虹
3、青花瓷
4、阳光宅男
5、蒲公英的约定
6、无双
7、我不配
8、扯
9、甜甜的
10、最长的电影

Exact Audio Copy V1.6 from 23. October 2020

EAC 抓取日志文件从23. 四月 2024, 19:38

周杰倫 / 我很忙

使用驱动器  :PIONEER DVD-RW  DVR-221L   Adapter: 1  ID: 0

读取模式      : 可靠Secure
使用精确流     : 是
清空音频缓存    : 否
使用 C2 指示器 : 否

读取偏移校正:               : 6
读取 Lead-In 和 Lead-Out : 否
用静音填充抓取中丢失偏移的采样       : 是
去除首尾静音块               : 否
在CRC 计算中使用了空样本       : 是
已用接口                  : Win NT 及 2000 本地 Win32 接口

所用输出模式: : 内部 WAV 函数
样本格式    : 44.100 Hz; 16 Bit; 立体声


已抓取 CD 的 TOC

     音轨 |    起始    |    长度    |  起始扇区  |  结束扇区  
    --------------------------------------------
      1 |  0:00.00 |  2:48.14 |      0 |  12613
      2 |  2:48.14 |  4:23.59 |  12614 |  32397
      3 |  7:11.73 |  3:59.26 |  32398 |  50348
      4 | 11:11.24 |  3:42.62 |  50349 |  67060
      5 | 14:54.11 |  4:07.15 |  67061 |  85600
      6 | 19:01.26 |  3:53.39 |  85601 | 103114
      7 | 22:54.65 |  4:48.57 | 103115 | 124771
      8 | 27:43.47 |  3:30.29 | 124772 | 140550
      9 | 31:14.01 |  4:03.64 | 140551 | 158839
     10 | 35:17.65 |  3:55.63 | 158840 | 176527


范围状态及错误

已选择范围

     文件名 D:\26602\Music\周杰倫 - 我很忙\周杰倫 - 我很忙.wav

     峰值电平 100.0 %
     抓取速度 10.8 X
     范围质量 100.0 %
     复制 CRC A1BD04F2
     复制成功

没有错误发生


AccurateRip 摘要

音轨  1  精确地校准抓取  13)  [44B3EA6F]  (AR v2)
音轨  2  精确地校准抓取  13)  [26F04604]  (AR v2)
音轨  3  精确地校准抓取  13)  [28B2735D]  (AR v2)
音轨  4  精确地校准抓取  13)  [6777E719]  (AR v2)
音轨  5  精确地校准抓取  13)  [2C76E7DE]  (AR v2)
音轨  6  精确地校准抓取  13)  [9F3854FC]  (AR v2)
音轨  7  精确地校准抓取  13)  [C136A777]  (AR v2)
音轨  8  精确地校准抓取  13)  [9A11EE0C]  (AR v2)
音轨  9  精确地校准抓取  13)  [E8989EF1]  (AR v2)
音轨 10  精确地校准抓取  13)  [C744E29F]  (AR v2)

所有音轨精确校准抓取

状态报告结尾

---- CUETools DB Plugin V2.1.6

[CTDB TOCID: KXtxklbYvE9Kaz7s4uab9N4GIVo-] found
Submit result: already submitted
Track | CTDB Status
  1   | (655/665) Accurately ripped
  2   | (655/665) Accurately ripped
  3   | (653/665) Accurately ripped
  4   | (652/665) Accurately ripped
  5   | (651/665) Accurately ripped
  6   | (654/665) Accurately ripped
  7   | (655/665) Accurately ripped
  8   | (652/665) Accurately ripped
  9   | (652/665) Accurately ripped
10   | (649/665) Accurately ripped

下载地址
周杰倫 - 我很忙[WAV+CUElog].zip (访问密码: 6688)
您需要登录后才可以回帖 登录 | 立即注册

本版积分规则

海水之声

海水音乐

海水VIP

免责声明

论坛功能

投诉维权

帮助中心

论坛公告

联系我们

微信号:wglkyj

QQ:54528858

联系:54528858@qq.com

版权均为原作者所有,仅为网友提供音乐信息的交流与学习的平台

本站不提供任何音乐本地下载,不为其版权负责,服务器不会保存

资源均网友第三方网盘链接分享,侵犯权益请联系第三方申请删除

网页的内容侵犯您权益,请联系管理员邮箱,我们将在第一时间删除

关注微信公众号

手机版|小黑屋|海水之声-音乐学习辅导论坛 |网站地图

GMT+8, 2024-7-23 01:18 , Processed in 0.203565 second(s), 5 queries , Redis On.